Nous les jeunes Index du Forum
 
 
 
Nous les jeunes Index du ForumFAQRechercherS’enregistrerConnexion

Ninja Masters 2013 DVDRip X264 AC3 W00D

 
Poster un nouveau sujet   Répondre au sujet    Nous les jeunes Index du Forum -> Forum spèciale discutions -> Ecriture - Lecture
Sujet précédent :: Sujet suivant  
Auteur Message
neelnick


Hors ligne

Inscrit le: 07 Avr 2016
Messages: 132
Localisation: Toulouse
Masculin

MessagePosté le: Ven 14 Juil - 00:39 (2017)    Sujet du message: Ninja Masters 2013 DVDRip X264 AC3 W00D Répondre en citant




Ninja Masters (2013) DVDRip X264 AC3 - W00D > tinyurl.com/yd4hy8mu









Ninja Masters (2013) DVDRip X264 AC3 - W00D

985d112f2e
7i2iv 1939 Battle of Westerplatte 2013 SUB ENG DVDetcBARDAASHT 2004 720P DVDRiP x264 ChapterS AC3 5 1 EMy Babysitters A Vampire S02E08 DVDRip x264 DEUTEREnglish Ninja.Shadow.Of.A.Tear.2013.1080p.BluRay.x264.AC3-RARBG 1 Luis-subs Fixed: Lots of things

Main Hoon Na 2004 DVDRIP 720P AC3 PRITAm Team ExDRNinja Masters (2013) DVDRip X264 AC3-W00D 14 1 4 years ago by NakedSoul in Movies This post was submitted 4 years ago and possible all download links are deadFemme Fatales S02E11 DVDRip X264 DEMANDFixed: Unneeded spaces, Bridge small gaps in duration, Lines balanced, HTML tags, Names, OCR, Overlapping, Short display-time, Missing quote("), Missing period at end of linesscreenshots Images are auto generated please report any inapropriate images .Sample info: Duration: 01:27:45.16, start: 0.000000, bitrate: 384 kb/s Stream #0.0(eng): Video: h264 (High), yuv420p, 704x304 [PAR 853:704 DAR 853:304], PAR 229:189 DAR 10076:3591, 23.98 fps, 59.94 tbr, 1k tbn, 180k tbc (default) Stream #0.1(eng): Audio: ac3, 48000 Hz, 5.1, s16, 384 kb/s (default)Seeders, leechers and torrent status is updated everyday.If you want to download the dvdrip torrent Ninja Masters (2013) DVDRip X264 AC3 W00D you will need a torrent clientEnglish Ninja.Shadow.Of.A.Tear.2013.720p.BluRay.x264.AC3-RARBG 1 Luis-subs HIThanks to "ganool sub"Farsi/Persian Dead.Man.Down.2013.720p.BRRip.X264.AC3 W00D 1 Faint AmirAli Neo & Milad Faint WwW.IMDb-DL.CoM

IDM Internet Download Manager 5 18 2 PatchSOAL DAN JAWABAN UAS FISIKA MATEMATIKA II.zip updated.1.2.Build.2400 | checkedFrench sex torrent squirt porn girls 2010 18 year old japanese pussy.avicreative emu10k1x-dbq sound driver for windows 7.rardeskscapes 8 torrentsiemens sinutrain 4.4free download tutorial vray sketchup pdf bahasa indonesiaBus stop telugu full movie free download torrentpdf file for gurcharan singh building planning.rar


Revenir en haut
Publicité






MessagePosté le: Ven 14 Juil - 00:39 (2017)    Sujet du message: Publicité

PublicitéSupprimer les publicités ?
Revenir en haut
Montrer les messages depuis:   
Poster un nouveau sujet   Répondre au sujet    Nous les jeunes Index du Forum -> Forum spèciale discutions -> Ecriture - Lecture Toutes les heures sont au format GMT + 1 Heure
Page 1 sur 1

 
Sauter vers:  

Index | Panneau d’administration | forum gratuit | Forum gratuit d’entraide | Annuaire des forums gratuits | Signaler une violation | Conditions générales d'utilisation
Template lost-kingdom_Tolede created by larme d'ange
Powered by phpBB © 2001, 2005 phpBB Group
Traduction par : phpBB-fr.com